+100


 

[Quote]

- Футбол. Лига Чемпионов УЕФА 2018-2019. Мадрид (Испания). Финал.
Тоттенхэм Хотспур (Англия) — Ливерпуль (Англия) (2019) HDTV [H.264/1080i-LQ]

« 2018–2019 UEFA Champions League »
-Телекомпания: Матч! Футбол 1 HD
Жанр: Спорт
Комментаторы: Роман Гутцайт, Сергей Кривохарченко
Описание: 01 июня 2019, суббота. 22:00 МСК
Лига Чемпионов УЕФА 2018-2019. Мадрид (Испания).
Финал.
Тоттенхэм Хотспур (Лондон, Англия) — Ливерпуль (Ливерпуль, Англия)
Стадион: Ванда Метрополитано (Мадрид, Испания), 63272 зрителя (93 % при вместимости 68000)
Главный судья: Дамир Скомина (Словения)
Ассистенты: Юре Прапротник (Словения); Роберт Вукан (Словения)
Резервный: Матеу Лаос (Испания)
Релиз от: Striker
Продолжительность: 02:12:32
Качество видео: HDTV
Язык озвучки: Русский
Субтитры: отсутствуют
Видео: AVC/H.264, 1920x1080 (16:9), ~8982 Kbps
Аудио: MP2, 2 ch, 48 kHz, 192 Kbps

MediaInfo

Общее
Идентификатор : 1 (0x1)
Полное имя : F:\SPORT\Футбол\Лига Чемпионов 2018-2019\ChampionsLeague.2018-2019.Final.Tottenham-Liverpool.HDTV.1080i.ts
Формат : MPEG-TS
Размер файла : 8,94 Гбайт
Продолжительность : 2 ч. 12 м.
Режим общего битрейта : Переменный
Общий поток : 9653 Кбит/сек
Видео
Идентификатор : 325 (0x145)
Идентификатор меню : 14105 (0x3719)
Формат : AVC
Формат/Информация : Advanced Video Codec
Профиль формата : High@L4
Настройки формата : CABAC / 4 Ref Frames
Параметр CABAC формата : Да
Параметр RefFrames формата : 4 кадра
Идентификатор кодека : 27
Продолжительность : 2 ч. 12 м.
Битрейт : 8982 Кбит/сек
Ширина : 1920 пикселей
Высота : 1080 пикселей
Соотношение сторон : 16:9
Частота кадров : 25,000 кадров/сек
Стандарт вещания : Component
Цветовое пространство : YUV
Субдискретизация насыщенности : 4:2:0
Битовая глубина : 8 бит
Тип развёртки : Чересстрочная
Метод сохранения типа развёртки : Раздельные поля
Порядок развёртки : Верхнее поле первое
Бит/(Пиксели*Кадры) : 0.173
Размер потока : 8,32 Гбайт (93%)
Цветовой диапазон : Limited
Основные цвета : BT.709
Характеристики трансфера : BT.709
Коэффициенты матрицы : BT.709
Аудио
Идентификатор : 405 (0x195)
Идентификатор меню : 14105 (0x3719)
Формат : MPEG Audio
Версия формата : Version 1
Профиль формата : Layer 2
Идентификатор кодека : 3
Продолжительность : 2 ч. 12 м.
Вид битрейта : Постоянный
Битрейт : 192 Кбит/сек
Каналы : 2 канала
Частота : 48,0 КГц
Частота кадров : 41,667 кадра/сек (1152 SPF)
Метод сжатия : С потерями
Размер потока : 182 Мбайт (2%)
Язык : Russian
Скриншоты:


Display posts:    

Current time is: 24-Jun 23:08

All times are UTC + 11


You cannot post new topics in this forum
You cannot reply to topics in this forum
You cannot edit your posts in this forum
You cannot delete your posts in this forum
You cannot vote in polls in this forum
You cannot attach files in this forum
You cannot download files in this forum

The site does not give electronic versions of products, and is engaged only in a collecting and cataloguing of the references sent and published at a forum by our readers. If you are the legal owner of any submitted material and do not wish that the reference to it was in our catalogue, contact us and we shall immediately remove her. Files for an exchange on tracker are given by users of a site, and the administration does not bear the responsibility for their maintenance. The request to not fill in the files protected by copyrights, and also files of the illegal maintenance!