+100


 

[Quote]

- Уральские пельмени. Привет, лето! (2019.05.31) WEB-DL [H.264/1080p-LQ] -Телекомпания: СТС
Жанр: Юмор
Участники: Дмитрий Брекоткин, Сергей Ершов, Сергей Исаев, Сергей Калугин, Вячеслав Мясников, Александр Попов, Андрей Рожков, Дмитрий Соколов, Максим Ярица, Юля Михалкова
Описание:
Привет, лето! Уральские Пельмени. Летний сборник. Лучшие летние номера.
Релиз от: Алехаndr
Продолжительность: 01:03:55
Качество видео: WEB-DL
Субтитры: Отсутствуют
Видео: AVC/H.264, 1920x1080 (16:9), ~4160 Kbps
Аудио: AC3, 2 ch, 192 Kbps

MediaInfo

Общее
Уникальный идентификатор : 162511329613906835051799008429044266809 (0x7A428B2968067139A3E64E13E085F739)
Полное имя : G:\Привет, лето! Уральские пельмени.by.Алехаndr.mkv
Формат : Matroska
Версия формата : Version 4
Размер файла : 1,98 Гбайт
Продолжительность : 1 ч. 3 м.
Общий поток : 4438 Кбит/сек
Программа кодирования : Lavf57.71.100
Библиотека кодирования : Lavf57.71.100
ErrorDetectionType : Per level 1
Видео
Идентификатор : 1
Формат : AVC
Формат/Информация : Advanced Video Codec
Профиль формата : High@L4
Настройки формата : CABAC / 3 Ref Frames
Параметр CABAC формата : Да
Параметр RefFrames формата : 3 кадра
Идентификатор кодека : V_MPEG4/ISO/AVC
Продолжительность : 1 ч. 3 м.
Битрейт : 4158 Кбит/сек
Ширина : 1920 пикселей
Высота : 1080 пикселей
Соотношение сторон : 16:9
Режим частоты кадров : Постоянный
Частота кадров : 25,000 кадров/сек
Цветовое пространство : YUV
Субдискретизация насыщенности : 4:2:0
Битовая глубина : 8 бит
Тип развёртки : Прогрессивная
Бит/(Пиксели*Кадры) : 0.080
Размер потока : 1,86 Гбайт (94%)
Default : Да
Forced : Нет
Цветовой диапазон : Limited
Основные цвета : BT.709
Характеристики трансфера : BT.709
Коэффициенты матрицы : BT.709
Аудио
Идентификатор : 2
Формат : AC-3
Формат/Информация : Audio Coding 3
Коммерческое название : Dolby Digital
Идентификатор кодека : A_AC3
Продолжительность : 1 ч. 3 м.
Вид битрейта : Постоянный
Битрейт : 192 Кбит/сек
Каналы : 2 канала
ChannelLayout : L R
Частота : 48,0 КГц
Частота кадров : 31,250 кадров/сек (1536 SPF)
Битовая глубина : 16 бит
Метод сжатия : С потерями
Размер потока : 87,8 Мбайт (4%)
ServiceKind/String : Complete Main
Default : Да
Forced : Нет
Скриншоты:


Display posts:    

Current time is: 24-Jun 23:03

All times are UTC + 11


You cannot post new topics in this forum
You cannot reply to topics in this forum
You cannot edit your posts in this forum
You cannot delete your posts in this forum
You cannot vote in polls in this forum
You cannot attach files in this forum
You cannot download files in this forum

The site does not give electronic versions of products, and is engaged only in a collecting and cataloguing of the references sent and published at a forum by our readers. If you are the legal owner of any submitted material and do not wish that the reference to it was in our catalogue, contact us and we shall immediately remove her. Files for an exchange on tracker are given by users of a site, and the administration does not bear the responsibility for their maintenance. The request to not fill in the files protected by copyrights, and also files of the illegal maintenance!