+100


 

[Quote]

-Comedy Баттл (2019) WEB-DLRip (сезон 9, выпуск 17)-Производство: Россия | Comedy Club Production, Телеканал ТНТ
Жанр: Юмор
Ведущий: Павел Воля
Режиссер: Кирилл Пухонто
Описание:
У смешного не бывает последних сезонов и как вы дорогие зрители видите битва за самые смешные пародии и шутки снова с нами. За годы существования проект "Comedy Баттл" не раз менял своё название и концепцию, но принцип отбора лучших юмористов так и остался в приоритете, а от неудачников избавляются давним способом – сцена сама сбрасывает их вниз. Комедийное шоу канала ТНТ, в котором может принять участие каждый, кто считает себя смешным. Победитель сезона получит 3 миллиона рублей и возможность заключить контракт с любой юмористической программой на ТНТ.

Возраст: 16+ (зрителям, достигшим 16 лет)
Продолжительность: 00:44:00
Качество видео: WEB-DLRip
Видео: Xvid, 720x400 (16:9), ~1700 Kbps
Аудио: AC3, 2 ch, 48.0 kHz, 192 Kbps

MediaInfo

General
Complete name : D:\Comedy_Баттл_s09_e17.avi
Format : AVI
Format/Info : Audio Video Interleave
File size : 599 MiB
Duration : 44 min 0 s
Overall bit rate : 1 903 kb/s
Writing application : Lavf54.63.104
Video
ID : 0
Format : xvid
Codec ID : xvid
Duration : 44 min 0 s
Bit rate : 1 700 kb/s
Width : 720 pixels
Height : 400 pixels
Display aspect ratio : 16:9
Frame rate : 25.000 FPS
Scan type : Progressive
Bits/(Pixel*Frame) : 0.236
Stream size : 535 MiB (89%)
Audio
ID : 1
Format : AC-3
Format/Info : Audio Coding 3
Commercial name : Dolby Digital
Codec ID : 2000
Duration : 44 min 0 s
Bit rate mode : Constant
Bit rate : 192 kb/s
Channel(s) : 2 channels
Channel layout : L R
Sampling rate : 48.0 kHz
Frame rate : 31.250 FPS (1536 SPF)
Bit depth : 16 bits
Compression mode : Lossy
Stream size : 60.4 MiB (10%)
Alignment : Aligned on interleaves
Interleave, duration : 32 ms (0.80 video frame)
Service kind : Complete Main
Скриншоты:


Display posts:    

Current time is: 21-May 17:59

All times are UTC + 11


You cannot post new topics in this forum
You cannot reply to topics in this forum
You cannot edit your posts in this forum
You cannot delete your posts in this forum
You cannot vote in polls in this forum
You cannot attach files in this forum
You cannot download files in this forum

The site does not give electronic versions of products, and is engaged only in a collecting and cataloguing of the references sent and published at a forum by our readers. If you are the legal owner of any submitted material and do not wish that the reference to it was in our catalogue, contact us and we shall immediately remove her. Files for an exchange on tracker are given by users of a site, and the administration does not bear the responsibility for their maintenance. The request to not fill in the files protected by copyrights, and also files of the illegal maintenance!