+100


 

[Quote]

- Футбол. Лига Чемпионов УЕФА 2018-2019. 1/2 Финала. 2-й матч.
Аякс (Нидерланды) — Тоттенхэм Хотспур (Англия) (2019) HDTVRip [H.264/720p-LQ]

« 2018–2019 UEFA Champions League »
-Телекомпания: Матч ТВ HD
Жанр: Спорт
Комментаторы: Денис Казанский, Дмитрий Шнякин
Описание: 08 мая 2019, среда. 22:00 МСК
Лига Чемпионов УЕФА 2018-2019. Плей-офф
1/2 Финала. 2-й матч.
Аякс (Амстердам, Нидерланды) — Тоттенхэм Хотспур (Лондон, Англия)
Стадион: Йохан Круифф Арена (Амстердам Арена) (Амстердам, Нидерланды), вместимость: 53052
Главный судья: Феликс Брих (Германия)
Ассистенты: Марк Борш (Германия); Штефан Лупп (Германия)
Резервный: Дениз Айтекин (Германия)
Релиз от: Striker
Продолжительность: 01:58:41
Качество видео: HDTVRip
Язык озвучки: Русский, Интершум
Субтитры: отсутствуют
Видео: AVC/H.264, 1280x720 (16:9), ~3968 Kbps, 50 fps
Аудио #1: AC3, 2 ch, 48 kHz, 192 Kbps | Русский
Аудио #2: AC3, 2 ch, 48 kHz, 192 Kbps | Интершум

MediaInfo

Общее
Уникальный идентификатор : 188001493960509127660762064103381529372 (0x8D6FC54B566245EBAC7E515F0E51F31C)
Полное имя : F:\SPORT\Футбол\Лига Чемпионов 2018-2019\ChampionsLeague.2018-2019.Semi-final.Second.leg.Ajax-Tottenham.HDTVRip.720p.mkv
Формат : Matroska
Версия формата : Version 2
Размер файла : 3,68 Гбайт
Продолжительность : 1 ч. 58 м.
Общий поток : 4440 Кбит/сек
Программа кодирования : Lavf54.63.104
Библиотека кодирования : Lavf54.63.104
Видео
Идентификатор : 1
Формат : AVC
Формат/Информация : Advanced Video Codec
Профиль формата : High@L4.1
Настройки формата : CABAC / 4 Ref Frames
Параметр CABAC формата : Да
Параметр RefFrames формата : 4 кадра
Параметр GOP формата : M=2, N=15
Идентификатор кодека : V_MPEG4/ISO/AVC
Продолжительность : 1 ч. 58 м.
Битрейт : 3968 Кбит/сек
Ширина : 1280 пикселей
Высота : 720 пикселей
Соотношение сторон : 16:9
Режим частоты кадров : Постоянный
Частота кадров : 50,000 кадров/сек
Цветовое пространство : YUV
Субдискретизация насыщенности : 4:2:0
Битовая глубина : 8 бит
Тип развёртки : Прогрессивная
Бит/(Пиксели*Кадры) : 0.086
Размер потока : 3,29 Гбайт (89%)
Default : Нет
Forced : Нет
Аудио #1
Идентификатор : 2
Формат : AC-3
Формат/Информация : Audio Coding 3
Коммерческое название : Dolby Digital
Идентификатор кодека : A_AC3
Продолжительность : 1 ч. 58 м.
Вид битрейта : Постоянный
Битрейт : 192 Кбит/сек
Каналы : 2 канала
Channel layout : L R
Частота : 48,0 КГц
Частота кадров : 31,250 кадров/сек (1536 SPF)
Битовая глубина : 16 бит
Метод сжатия : С потерями
Размер потока : 163 Мбайт (4%)
Язык : Russian
ServiceKind/String : Complete Main
Default : Да
Forced : Нет
Аудио #2
Идентификатор : 3
Формат : AC-3
Формат/Информация : Audio Coding 3
Коммерческое название : Dolby Digital
Идентификатор кодека : A_AC3
Продолжительность : 1 ч. 58 м.
Вид битрейта : Постоянный
Битрейт : 192 Кбит/сек
Каналы : 2 канала
Channel layout : L R
Частота : 48,0 КГц
Частота кадров : 31,250 кадров/сек (1536 SPF)
Битовая глубина : 16 бит
Метод сжатия : С потерями
Размер потока : 163 Мбайт (4%)
ServiceKind/String : Complete Main
Default : Нет
Forced : Нет
Скриншоты:


Display posts:    

Current time is: 20-May 23:50

All times are UTC + 11


You cannot post new topics in this forum
You cannot reply to topics in this forum
You cannot edit your posts in this forum
You cannot delete your posts in this forum
You cannot vote in polls in this forum
You cannot attach files in this forum
You cannot download files in this forum

The site does not give electronic versions of products, and is engaged only in a collecting and cataloguing of the references sent and published at a forum by our readers. If you are the legal owner of any submitted material and do not wish that the reference to it was in our catalogue, contact us and we shall immediately remove her. Files for an exchange on tracker are given by users of a site, and the administration does not bear the responsibility for their maintenance. The request to not fill in the files protected by copyrights, and also files of the illegal maintenance!