+100


 

[Quote]

- Военный парад, посвященный 74-й годовщине Победы в ВОВ 1941-1945 годов (2019) HDTVRip [H.264/1080i-LQ] (Москва)-Телекомпания: Россия, 1 HD
Жанр: Документальный, военный парад
Описание:
Военный парад, посвященный 74-й годовщине Победы в Великой Отечественной войне.
Каждый год 9 мая во многих странах мира отмечают День Победы над немецко-фашистскими захватчиками. Но нигде этот праздник не празднуют с таким размахом, как в России. В 2019 году отмечается 74 год со Дня Победы.
Релиз от: centoriuse
Продолжительность: 01:13:06
Качество видео: HDTVRip
Субтитры: Отсутствуют
Видео: AVC/H.264, 1920x1080 (16:9), ~5000 Kbps (0.096 bit/pixel)
Аудио: MP3, 2 ch, 256 Kbps

MediaInfo

Общее
Уникальный идентификатор                 : 60638491061857462200176777749267410093 (0x2D9E8C6F34668C95B1D372D7B126ECAD)
Полное имя                               : F:\видео\ТВ передачи\Парад Победы в Москве 2019 HDTVRip (1080i).mkv
Формат                                   : Matroska
Версия формата                           : Version 4
Размер файла                             : 2,69 Гбайт
Продолжительность                        : 1 ч. 13 м.
Режим общего битрейта                    : Постоянный
Общий поток                              : 5261 Кбит/сек
Программа кодирования                    : Lavf57.71.100
Библиотека кодирования                   : Lavf57.71.100
ErrorDetectionType                       : Per level 1
Видео
Идентификатор                            : 1
Формат                                   : AVC
Формат/Информация                        : Advanced Video Codec
Профиль формата                          : Main@L4
Настройки формата                        : CABAC / 1 Ref Frames
Параметр CABAC формата                   : Да
Параметр RefFrames формата               : 1 кадр
Параметр GOP формата                     : M=1, N=25
Идентификатор кодека                     : V_MPEG4/ISO/AVC
Продолжительность                        : 1 ч. 13 м.
Вид битрейта                             : Постоянный
Битрейт                                  : 5000 Кбит/сек
Ширина                                   : 1920 пикселей
Высота                                   : 1080 пикселей
Соотношение сторон                       : 16:9
Режим частоты кадров                     : Постоянный
Частота кадров                           : 25,000 кадров/сек
Цветовое пространство                    : YUV
Субдискретизация насыщенности            : 4:2:0
Битовая глубина                          : 8 бит
Тип развёртки                            : Прогрессивная
Бит/(Пиксели*Кадры)                      : 0.096
Размер потока                            : 2,50 Гбайт (93%)
Default                                  : Да
Forced                                   : Нет
Аудио
Идентификатор                            : 2
Формат                                   : MPEG Audio
Версия формата                           : Version 1
Профиль формата                          : Layer 3
Настройки формата                        : Joint stereo / MS Stereo
Идентификатор кодека                     : A_MPEG/L3
Идентификатор кодека/Подсказка           : MP3
Продолжительность                        : 1 ч. 13 м.
Вид битрейта                             : Постоянный
Битрейт                                  : 256 Кбит/сек
Каналы                                   : 2 канала
Частота                                  : 48,0 КГц
Метод сжатия                             : С потерями
Размер потока                            : 134 Мбайт (5%)
Библиотека кодирования                   : LAME3.99.5ªªªªªªªª
Язык                                     : Russian
Default                                  : Да
Forced                                   : Нет
Скриншоты:


Display posts:    

Current time is: 21-May 00:12

All times are UTC + 11


You cannot post new topics in this forum
You cannot reply to topics in this forum
You cannot edit your posts in this forum
You cannot delete your posts in this forum
You cannot vote in polls in this forum
You cannot attach files in this forum
You cannot download files in this forum

The site does not give electronic versions of products, and is engaged only in a collecting and cataloguing of the references sent and published at a forum by our readers. If you are the legal owner of any submitted material and do not wish that the reference to it was in our catalogue, contact us and we shall immediately remove her. Files for an exchange on tracker are given by users of a site, and the administration does not bear the responsibility for their maintenance. The request to not fill in the files protected by copyrights, and also files of the illegal maintenance!