+100


 

[Quote]

-Новый Человек-паук: Высокое напряжение / The Amazing Spider-Man 2 (2014) WEB-DL [720p] ATV
«No more secrets»
-Год выпуска: 2014
Производство: США
Жанр: Фэнтези, боевик, приключения
Продолжительность: 02:21:34
Перевод: Дублированный (Line)
Оригинальная аудиодорожка: Есть
Режиссер: Марк Уэбб
Сценарий: Алекс Куртцман, Роберто Орси, Джефф Пинкнер
Продюсер: Ави Арад, Мэттью Толмак, Алекс Куртцман
Оператор: Дэниэл Миндел
Композитор: Джонни Марр, Фаррелл Уильямс, Ханс Циммер
Художник: Марк Фридберг, Ким Дженнингс, Ричард Л. Джонсон
Монтаж: Пьетро Скалия
Актеры: Эндрю Гарфилд, Эмма Стоун, Джейми Фокс, Дэйн ДеХаан, Салли Филд, Колм Фиор, Фелисити Джонс, Пол Джаматти, Мартон Чокаш, Кэмпбелл Скотт
Бюджет: $200 000 000
Сборы в США: $202 408 526
Сборы в мире: + $504 257 479 = $706 666 005
Сборы в России: $20 748 139
Мировая премьера: 10 апреля 2014
Премьера (РФ): 24 апреля 2014, «WDSSPR»
Релиз на DVD: 21 августа 2014, «CP Дистрибуция»
Релиз на Blu-Ray: 21 августа 2014, «CP Дистрибуция»

Описание: Питер Паркер под маской Человека-паука по-прежнему спасает мир от злодеев и преступников, а свободное время проводит со своей возлюбленной Гвен, но школьная пора близится к концу, и впереди героев ждет взрослая жизнь. Питер помнит о том, что дал отцу Гвен слово навсегда уйти из жизни девушки, тем самым больше не подвергая ее опасности. Однако сдержать это обещание не так просто. Судьба готовит Питеру сюрпризы: на его пути появится новый противник — Электро, а также ему будет суждено вновь встретиться с давним приятелем Гарри Озборном и узнать много нового о прошлом своей семьи.-Качество: WEB-DL 720p
Тип: HD (720p)
Контейнер: M4V
Видео: H.264, 1280x532, 2.40:1, 4 088 Kbps, 23.976 fps
Аудио 1: Русский/Дублированный (Line), AAC / 2.0 / 96.0 Kbps / 44.1 KHz
Аудио 2: Английский/Оригинальная дорожка , AAC / 2.0 / 132 Kbps / 48.0 KHz
Аудио 3: Английский/Оригинальная дорожка , AC-3 / 5.1 / 384 Kbps / 48.0 KHz-

iTunes Meta Tags

Media Type: Music HD 720p
Sort Name: The Amazing Spider-Man 2
XID: Apple:vendor_id:2014-602409
Content ID: 854943940
Copyright: © 2014 Columbia Pictures Industries, Inc. All Rights Reserved. Marvel, Spider-Man and all related character names and their distinctive likenesses: ™ & 2014 Marvel Entertainment, LLC and its subsidiaries. All Rights Reserved.
Long Description: Питер Паркер под маской Человека-паука по-прежнему спасает мир от злодеев и преступников, а свободное время проводит со своей возлюбленной Гвен, но школьная пора близится к концу, и впереди героев ждет взрослая жизнь. Питер помнит о том, что дал отцу Гвен слово навсегда уйти из жизни девушки, тем самым больше не подвергая ее опасности. Однако сдержать это обещание не так просто. Судьба готовит Питеру сюрпризы: на его пути появится новый противник - Электро, а также ему будет суждено вновь встретиться с давним приятелем Гарри Озборном и узнать много нового о прошлом своей семьи.
Description: Питер Паркер под маской Человека-паука по-прежнему спасает мир от злодеев и преступников, а свободное время проводит со своей возлюбленной Гвен, но школьная пора близится к концу, и впереди героев ждет взрослая жизнь.
Release Date: 2014-04-10T08:00:00Z
Artist: Marc Webb
Name: The Amazing Spider-Man 2

MediaInfo

General
Complete name                            : C:\\Handbrake\\Novyj.4elovek.Pauk.2.WEB-DL.720p.m4v
Format                                   : MPEG-4
Codec ID                                 : M4V
File size                                : 4.66 GiB
Duration                                 : 2h 21mn
Overall bit rate mode                    : Variable
Overall bit rate                         : 4 709 Kbps
Movie name                               : The Amazing Spider-Man 2
Performer                                : Marc Webb
ContentType                              : Music
Description                              : Питер Паркер под маской Человека-паука по-прежнему спасает мир от злодеев и преступников, а свободное время проводит со своей возлюбленной Гвен, но школьная пора близится к концу, и впереди героев ждет взрослая жизнь.
Recorded date                            : UTC 2014-04-10 08:00:00
Encoded date                             : UTC 2014-07-30 11:52:37
Tagged date                              : UTC 2014-07-30 12:09:09
Writing application                      : MkvToMp4 [www.mkvtomp4.ru] version: 0.224 (x64)
Copyright                                : © 2014 Columbia Pictures Industries, Inc. All Rights Reserved. Marvel, Spider-Man and all related character names and their distinctive likenesses: ™ & 2014 Marvel Entertainment, LLC and its subsidiaries. All Rights Reserved.
Service name                             : AOL
Cover                                    : Yes
Title/Sort                               : The Amazing Spider-Man 2
LongDescription                          : Питер Паркер под маской Человека-паука по-прежнему спасает мир от злодеев и преступников, а свободное время проводит со своей возлюбленной Гвен, но школьная пора близится к концу, и впереди героев ждет взрослая жизнь. Питер помнит о том, что дал отцу Гвен слово навсегда уйти из жизни девушки, тем самым больше не подвергая ее опасности. Однако сдержать это обещание не так просто. Судьба готовит Питеру сюрпризы: на его пути появится новый противник - Электро, а также ему будет суждено вновь встретиться с давним приятелем Гарри Озборном и узнать много нового о прошлом своей семьи.
HDVideo                                  : Yes
AppleStoreAccountType                    : AOL
AppleStoreCountry                        : Unknown Country
AppleStoreCatalogID                      : 854943940
Vendor                                   : Apple:vendor_id:2014-602409
Video
ID                                       : 1
Format                                   : AVC
Format/Info                              : Advanced Video Codec
Format profile                           : [url=mailto:Main@L3.1]Main@L3.1[/url]
Format settings, CABAC                   : No
Format settings, ReFrames                : 2 frames
Format settings, GOP                     : M=2, N=88
Codec ID                                 : avc1
Codec ID/Info                            : Advanced Video Coding
Duration                                 : 2h 21mn
Bit rate                                 : 4 088 Kbps
Maximum bit rate                         : 14.0 Mbps
Width                                    : 1 280 pixels
Height                                   : 532 pixels
Display aspect ratio                     : 2.40:1
Frame rate mode                          : Constant
Frame rate                               : 23.976 fps
Color space                              : YUV
Chroma subsampling                       : 4:2:0
Bit depth                                : 8 bits
Scan type                                : Progressive
Bits/(Pixel*Frame)                       : 0.250
Stream size                              : 4.04 GiB (87%)
Language                                 : English
Encoded date                             : UTC 2014-07-30 11:52:37
Tagged date                              : UTC 2014-07-30 11:54:29
Color primaries                          : BT.709
Transfer characteristics                 : BT.709
Matrix coefficients                      : BT.709
Audio #1
ID                                       : 2
Format                                   : AAC
Format/Info                              : Advanced Audio Codec
Format profile                           : LC
Codec ID                                 : 40
Duration                                 : 2h 21mn
Bit rate mode                            : Variable
Bit rate                                 : 96.0 Kbps
Maximum bit rate                         : 120 Kbps
Channel(s)                               : 2 channels
Channel positions                        : Front: L R
Sampling rate                            : 44.1 KHz
Compression mode                         : Lossy
Stream size                              : 97.7 MiB (2%)
Language                                 : Russian
Encoded date                             : UTC 2014-07-30 11:50:15
Tagged date                              : UTC 2014-07-30 11:54:29
Audio #2
ID                                       : 3
Format                                   : AAC
Format/Info                              : Advanced Audio Codec
Format profile                           : LC
Codec ID                                 : 40
Duration                                 : 2h 21mn
Bit rate mode                            : Variable
Bit rate                                 : 132 Kbps
Maximum bit rate                         : 193 Kbps
Channel(s)                               : 2 channels
Channel positions                        : Front: L R
Sampling rate                            : 48.0 KHz
Compression mode                         : Lossy
Stream size                              : 137 MiB (3%)
Language                                 : English
Encoded date                             : UTC 2014-07-30 11:54:19
Tagged date                              : UTC 2014-07-30 11:54:29
Audio #3
ID                                       : 4
Format                                   : AC-3
Format/Info                              : Audio Coding 3
Mode extension                           : CM (complete main)
Format settings, Endianness              : Big
Codec ID                                 : ac-3
Duration                                 : 2h 21mn
Bit rate mode                            : Constant
Bit rate                                 : 384 Kbps
Channel(s)                               : 6 channels
Channel positions                        : Front: L C R, Side: L R, LFE
Sampling rate                            : 48.0 KHz
Bit depth                                : 16 bits
Compression mode                         : Lossy
Stream size                              : 389 MiB (8%)
Language                                 : English
Encoded date                             : UTC 2014-07-30 11:54:24
Tagged date                              : UTC 2014-07-30 11:54:29
Menu
ID                                       : 5
Codec ID                                 : text
Duration                                 : 2h 21mn
Encoded date                             : UTC 2014-07-30 12:08:57
Tagged date                              : UTC 2014-07-30 12:08:57
Bit rate mode                            : VBR
Скриншоты:


Display posts:    

Current time is: 22-Jul 16:48

All times are UTC + 11


You cannot post new topics in this forum
You cannot reply to topics in this forum
You cannot edit your posts in this forum
You cannot delete your posts in this forum
You cannot vote in polls in this forum
You cannot attach files in this forum
You cannot download files in this forum

The site does not give electronic versions of products, and is engaged only in a collecting and cataloguing of the references sent and published at a forum by our readers. If you are the legal owner of any submitted material and do not wish that the reference to it was in our catalogue, contact us and we shall immediately remove her. Files for an exchange on tracker are given by users of a site, and the administration does not bear the responsibility for their maintenance. The request to not fill in the files protected by copyrights, and also files of the illegal maintenance!